请选择 进入手机版 | 继续访问电脑版

南印虎坛

南印虎坛 - 传递梵境之音(゜-゜)つロ~
// 看个虎片
查看: 439|回复: 5
收起左侧

[圣域守护者] Badrinath 2011 BluRay 1080p DTS-HDMA 5.1 外挂中文字幕 [百度网盘]

[复制链接] 设为封面
  • TA的每日心情
    郁闷
    2021-6-11 10:32
  • 发表于 2020-5-12 00:01 | 显示全部楼层 |阅读模式
    海报.jpg

    ▍电影信息:

    原      名:Badrinath
    译      名:圣域守护者
    语      言:泰卢固语
    时      长:2小时20分
    类      别:剧情、动作
    上      映:2011年6月10日
    导      演:Vinayak V.V.
    音      乐:M. M. Keeravani
    主      演:Allu Arjun, Tamannaah


    ▍文件信息:

    文件格式: BD50
    分  辨  率:1920x1080
    音频格式: DTS 5.1+AC3 5.1
    文件大小: 34.5G
    字       幕:外挂中文字幕


    1. Video
    2. ID                          : 1
    3. Format                      : AVC
    4. Format/Info                 : Advanced Video Codec
    5. Format profile              : High@L4.1
    6. Format settings             : CABAC / 4 Ref Frames
    7. Format settings, CABAC      : Yes
    8. Format settings, Reference  : 4 frames
    9. Format settings, GOP        : M=3, N=24
    10. Codec ID                    : V_MPEG4/ISO/AVC
    11. Duration                    : 2 h 20 min
    12. Bit rate mode               : Variable
    13. Bit rate                    : 31.5 Mb/s
    14. Maximum bit rate            : 38.0 Mb/s
    15. Width                       : 1 920 pixels
    16. Height                      : 1 080 pixels
    17. Display aspect ratio        : 16:9
    18. Frame rate mode             : Constant
    19. Frame rate                  : 24.000 FPS
    20. Standard                    : NTSC
    21. Color space                 : YUV
    22. Chroma subsampling          : 4:2:0
    23. Bit depth                   : 8 bits
    24. Scan type                   : Progressive
    25. Bits/(Pixel*Frame)          : 0.633
    26. Stream size                 : 30.9 GiB (90%)
    27. Default                     : Yes
    28. Forced                      : No
    29. Color range                 : Limited
    30. Color primaries             : BT.709
    31. Transfer characteristics    : BT.709
    32. Matrix coefficients         : BT.709

    33. Audio #1
    34. ID                          : 2
    35. Format                      : AC-3
    36. Format/Info                 : Audio Coding 3
    37. Commercial name             : Dolby Digital
    38. Codec ID                    : A_AC3
    39. Duration                    : 2 h 20 min
    40. Bit rate mode               : Constant
    41. Bit rate                    : 448 kb/s
    42. Channel(s)                  : 6 channels
    43. Channel layout              : L R C LFE Ls Rs
    44. Sampling rate               : 48.0 kHz
    45. Frame rate                  : 31.250 FPS (1536 SPF)
    46. Compression mode            : Lossy
    47. Stream size                 : 451 MiB (1%)
    48. Language                    : Telugu
    49. Service kind                : Complete Main
    50. Default                     : Yes
    51. Forced                      : No

    52. Audio #2
    53. ID                          : 3
    54. Format                      : DTS XLL
    55. Format/Info                 : Digital Theater Systems
    56. Commercial name             : DTS-HD Master Audio
    57. Codec ID                    : A_DTS
    58. Duration                    : 2 h 20 min
    59. Bit rate mode               : Variable
    60. Bit rate                    : 3 194 kb/s
    61. Channel(s)                  : 6 channels
    62. Channel layout              : C L R Ls Rs LFE
    63. Sampling rate               : 48.0 kHz
    64. Frame rate                  : 93.750 FPS (512 SPF)
    65. Bit depth                   : 16 bits
    66. Compression mode            : Lossless
    67. Stream size                 : 3.14 GiB (9%)
    68. Language                    : Telugu
    69. Default                     : No
    70. Forced                      : No

    复制代码


    ▍电影介绍:

    巴德里是一位在特殊环境下长大的虔诚修武者,自称“不是为女人而生”,并对自己的师尊唯命是从。但人生就是充满了未知,一位刁蛮任性的大小姐爱上了他。面对似火的柔情,巴德里却仿佛一块顽石。世事总是无常,于是,一则时而惊心动魄时而浪漫蜜意的新天方夜谭便展现在我们的面前。


    ▍视频截图:

    【南印虎坛】2011 Badrinath 圣域守护者 BluRay Remux 1080p DTS 外挂中文字幕.mkv_20.jpg 【南印虎坛】2011 Badrinath 圣域守护者 BluRay Remux 1080p DTS 外挂中文字幕.mkv_20.jpg 【南印虎坛】2011 Badrinath 圣域守护者 BluRay Remux 1080p DTS 外挂中文字幕.mkv_20.jpg 【南印虎坛】2011 Badrinath 圣域守护者 BluRay Remux 1080p DTS 外挂中文字幕.mkv_20.jpg 【南印虎坛】2011 Badrinath 圣域守护者 BluRay Remux 1080p DTS 外挂中文字幕.mkv_20.jpg 【南印虎坛】2011 Badrinath 圣域守护者 BluRay Remux 1080p DTS 外挂中文字幕.mkv_20.jpg 【南印虎坛】2011 Badrinath 圣域守护者 BluRay Remux 1080p DTS 外挂中文字幕.mkv_20.jpg










    ▍百度网盘:
    购买主题 已有 5 人购买  提取码需支付 100虎牙才能查看 爱心会员免费




    上一篇:[阿育王] Asoka 2001 [蓝光原盘 1080P 外挂中文字幕] [百度网盘]
    下一篇:[双龙会] Adhurs 2010 BluRay 1080p DTS-HDMA 5.1 蓝光原盘 外挂中文字幕 [百度网盘]
    回复

    使用道具 举报

  • TA的每日心情
    无聊
    2020-6-18 07:51
  • 发表于 2020-5-12 06:55 来自手机 | 显示全部楼层
    这部电影剧情一般,但是音乐是神了,好几首都特别好听!谢谢小老虎的分享
    回复

    使用道具 举报

    该用户从未签到

    发表于 2021-4-24 20:53 | 显示全部楼层
    提取码只有三个字串。无法提取哦
    回复

    使用道具 举报

  • TA的每日心情
    开心
    2021-6-23 00:28
  • 发表于 2021-6-5 18:52 | 显示全部楼层
    大大~該【34G BDREMUX 原码视频:....】提取碼真的有問題不能提取喔!!~再麻煩您修改一下~拜託拜託先!!~想看~3Q!!

    回复

    使用道具 举报

  • TA的每日心情
    郁闷
    2021-6-11 10:32
  •  楼主| 发表于 2021-6-5 21:40 | 显示全部楼层
    lichin1985 发表于 2021-6-5 18:52
    大大~該【34G BDREMUX 原码视频:....】提取碼真的有問題不能提取喔!!~再麻煩您修改一下~拜託拜託先!!~想看 ...

    已修复链接~
    回复

    使用道具 举报

  • TA的每日心情
    开心
    2021-6-23 00:28
  • 发表于 2021-6-5 22:40 | 显示全部楼层

    大大可以了~真的非常感謝您的幫忙及分享^ ^~謝謝先!!
    回复

    使用道具 举报

    您需要登录后才可以回帖 登录 | 立即注册

    本版积分规则

    手机版|小黑屋|南印虎坛 |网站地图

    GMT+8, 2021-6-23 23:58 , Processed in 0.273053 second(s), 33 queries .

    Powered by Jrntr.net X3.4

    © 2013-2021 南印虎坛

    快速回复 返回顶部 返回列表