请选择 进入手机版 | 继续访问电脑版

南印虎坛

南印虎坛 - 传递梵境之音(゜-゜)つロ~
// 看个虎片
查看: 185|回复: 1
收起左侧

[复仇计谋] Ramayya Vastavayya 2013 BluRay 1080p DTS-HDMA 5.1 蓝光原盘 外挂中文字幕 [百度网盘]

[复制链接] 设为封面
  • TA的每日心情
    郁闷
    2021-6-11 10:32
  • 发表于 2021-4-20 01:45 | 显示全部楼层 |阅读模式
    B.jpg

    电影信息:

    片      名: Ramayya Vasthavayya
    译      名: 复仇计谋
    语      言: 泰卢固语
    时      长: 2小时分钟
    类      别: 剧情/爱情/动作
    上映时间:2013
    导      演:Harish Shankar
    主      演:Jr. NTR, Shruti Haasan, Samantha Akkineni
    音      乐:S. Thaman
    格      式:MKV
    分  辨 率:1920x1080
    音      频:DTS-HDMA 5.1
    大      小:37.1 GiB
    字      幕:外挂中文字幕

    文件信息:

    1. General

    2. Complete name               : E:\【南印虎坛】2013 复仇计谋 Ramayya Vastavayya BluRay 1080p DTS-HDMA 5.1 蓝光原盘 外挂中文字幕.mkv
    3. Format                      : Matroska
    4. Format version              : Version 4
    5. File size                   : 37.2 GiB
    6. Duration                    : 2 h 40 min
    7. Overall bit rate mode       : Variable
    8. Overall bit rate            : 33.2 Mb/s
    9. Encoded date                : UTC 2021-04-19 16:38:57
    10. Writing application         : mkvmerge v51.0.0 ('I Wish') 64-bit
    11. Writing library             : libebml v1.4.0 + libmatroska v1.6.2
    12. Cover                       : Yes
    13. Attachments                 : Cover.jpg

    14. Video
    15. ID                          : 1
    16. Format                      : AVC
    17. Format/Info                 : Advanced Video Codec
    18. Format profile              : High@L4.1
    19. Format settings             : CABAC / 4 Ref Frames
    20. Format settings, CABAC      : Yes
    21. Format settings, Reference  : 4 frames
    22. Format settings, GOP        : M=3, N=24
    23. Codec ID                    : V_MPEG4/ISO/AVC
    24. Duration                    : 2 h 40 min
    25. Bit rate mode               : Variable
    26. Bit rate                    : 29.8 Mb/s
    27. Maximum bit rate            : 35.0 Mb/s
    28. Width                       : 1 920 pixels
    29. Height                      : 1 080 pixels
    30. Display aspect ratio        : 16:9
    31. Frame rate mode             : Constant
    32. Frame rate                  : 24.000 FPS
    33. Standard                    : NTSC
    34. Color space                 : YUV
    35. Chroma subsampling          : 4:2:0
    36. Bit depth                   : 8 bits
    37. Scan type                   : Progressive
    38. Bits/(Pixel*Frame)          : 0.598
    39. Stream size                 : 33.3 GiB (90%)
    40. Title                       : 南印虎坛 传递梵境之音(゜-゜)つロ 干杯~ http://www.jrntr.net/
    41. Default                     : Yes
    42. Forced                      : No
    43. Color range                 : Limited
    44. Color primaries             : BT.709
    45. Transfer characteristics    : BT.709
    46. Matrix coefficients         : BT.709

    47. Audio #1
    48. ID                          : 2
    49. Format                      : DTS XLL
    50. Format/Info                 : Digital Theater Systems
    51. Commercial name             : DTS-HD Master Audio
    52. Codec ID                    : A_DTS
    53. Duration                    : 2 h 40 min
    54. Bit rate mode               : Variable
    55. Bit rate                    : 3 006 kb/s
    56. Channel(s)                  : 6 channels
    57. Channel layout              : C L R Ls Rs LFE
    58. Sampling rate               : 48.0 kHz
    59. Frame rate                  : 93.750 FPS (512 SPF)
    60. Bit depth                   : 24 bits
    61. Compression mode            : Lossless
    62. Stream size                 : 3.36 GiB (9%)
    63. Title                       : 南印虎坛 传递梵境之音(゜-゜)つロ 干杯~ http://www.jrntr.net/
    64. Default                     : Yes
    65. Forced                      : No

    66. Audio #2
    67. ID                          : 3
    68. Format                      : AC-3
    69. Format/Info                 : Audio Coding 3
    70. Commercial name             : Dolby Digital
    71. Codec ID                    : A_AC3
    72. Duration                    : 2 h 40 min
    73. Bit rate mode               : Constant
    74. Bit rate                    : 448 kb/s
    75. Channel(s)                  : 6 channels
    76. Channel layout              : L R C LFE Ls Rs
    77. Sampling rate               : 48.0 kHz
    78. Frame rate                  : 31.250 FPS (1536 SPF)
    79. Compression mode            : Lossy
    80. Stream size                 : 513 MiB (1%)
    81. Title                       : 南印虎坛 传递梵境之音(゜-゜)つロ 干杯~ http://www.jrntr.net/
    82. Service kind                : Complete Main
    83. Default                     : No
    84. Forced                      : No

    85. Text
    86. ID                          : 4
    87. Format                      : PGS
    88. Muxing mode                 : zlib
    89. Codec ID                    : S_HDMV/PGS
    90. Codec ID/Info               : Picture based subtitle format used on BDs/HD-DVDs
    91. Duration                    : 2 h 33 min
    92. Bit rate                    : 31.8 kb/s
    93. Count of elements           : 3217
    94. Stream size                 : 35.0 MiB (0%)
    95. Title                       : 南印虎坛 传递梵境之音(゜-゜)つロ 干杯~ http://www.jrntr.net/
    96. Default                     : Yes
    97. Forced                      : No

    复制代码


    剧情简介:

    拉姆(Jr.NTR ) 他假冒身份去接阿卡莎(萨曼莎) ,他想通过阿卡莎去杀了她的父亲,报一家之仇。

    起源要从阿迪恰普兰这块地方说起。拉姆在火车站偶遇阿穆鲁(施卢蒂.哈森),并爱上了她,为了吸引阿穆鲁,拉姆跟他的朋友们演了一出戏,成功地接近了阿穆鲁,而且与她订下了婚约,然而......

    视频截图:

    【南印虎坛】2013 复仇计谋 Ramayya Vastavayya BluRay 1080p DTS-HDMA 5.1 蓝光原盘 .jpg 【南印虎坛】2013 复仇计谋 Ramayya Vastavayya BluRay 1080p DTS-HDMA 5.1 蓝光原盘 .jpg 【南印虎坛】2013 复仇计谋 Ramayya Vastavayya BluRay 1080p DTS-HDMA 5.1 蓝光原盘 .jpg 【南印虎坛】2013 复仇计谋 Ramayya Vastavayya BluRay 1080p DTS-HDMA 5.1 蓝光原盘 .jpg 【南印虎坛】2013 复仇计谋 Ramayya Vastavayya BluRay 1080p DTS-HDMA 5.1 蓝光原盘 .jpg 【南印虎坛】2013 复仇计谋 Ramayya Vastavayya BluRay 1080p DTS-HDMA 5.1 蓝光原盘 .jpg 【南印虎坛】2013 复仇计谋 Ramayya Vastavayya BluRay 1080p DTS-HDMA 5.1 蓝光原盘 .jpg 【南印虎坛】2013 复仇计谋 Ramayya Vastavayya BluRay 1080p DTS-HDMA 5.1 蓝光原盘 .jpg

    下载地址:
    链接:https://pan.baidu.com/s/1ZbW1YWNABzsgxKkGnL9LkA
    提取码:


    购买主题 已有 7 人购买  提取码需支付 100虎牙才能查看 爱心会员免费




    上一篇:[爱的恐惧] Darr 1993 BluRay 1080p DTS-HDMA 5.1 蓝光原盘 外挂中文字幕 [百度网盘]
    下一篇:[怦然心动] Kuch Kuch Hota Hai 1998 BluRay 4K DTS-HDMA 5.1 外挂中文字幕 [百度网盘]
    回复

    使用道具 举报

  • TA的每日心情
    可爱
    2021-6-22 00:01
  • 发表于 2021-5-1 08:56 | 显示全部楼层
    小老虎的艳福真是齐天,老是同时配几个角色美女
    回复

    使用道具 举报

    您需要登录后才可以回帖 登录 | 立即注册

    本版积分规则

    手机版|小黑屋|南印虎坛 |网站地图

    GMT+8, 2021-6-23 23:18 , Processed in 0.224152 second(s), 32 queries .

    Powered by Jrntr.net X3.4

    © 2013-2021 南印虎坛

    快速回复 返回顶部 返回列表