请选择 进入手机版 | 继续访问电脑版

南印虎坛

南印虎坛 - 传递梵境之音(゜-゜)つロ~
// 看个虎片
查看: 45|回复: 1
收起左侧

[地球上的星星] Taare Zameen Par 2007 BluRay 1080p DTS-HDMA 5.1 蓝光原盘 外挂中文字幕 [百度网盘]

[复制链接] 设为封面
  • TA的每日心情
    可爱
    2021-6-24 00:48
  • 发表于 2021-7-22 03:07 | 显示全部楼层 |阅读模式
    p2197898306.jpg

    ◎片  名 Taare Zameen Par
    ◎译  名 地球上的星星/心中的小星星(台)
    ◎年  代 2007
    ◎地  区 印度
    ◎类  别 剧情
    ◎语  言 印度语 | 英语
    ◎片  长 165分钟
    ◎導    演   阿米尔·汗 Aamir Khan
    ◎主  演   阿米尔·汗 Aamir Khan  ....Ram Shankar Nikumbh
          塔奈·切赫达 Tanay Chheda  ....Rajan Damodaran
          Darsheel Safary  ....Ishaan Awasthi
          Vipin Sharma  ....Mr. Awasthi
          Lalitha Lajmi  ....Herself
          Girija Oak  ....Jabeen - Amir‘s Co-worker
          M.K. Raina  ....Principal - Boarding School
          Sachet Engineer  ....Yohan N. Awasthi
          Tisca Chopra  ....Maya N. Awasthi
          Ayaan  ....Ishaan N. Awasthi - 10 months


    ◎剧情简介 

      八岁的艾沙是个满脑子奇思异想的男孩,可是在老师眼里,他是个淘气包、麻烦精。艾沙父母无奈之下,只好给他转学,而在新学校里,欢快而乐观的艺术老师发现他原来有阅读障碍,开始细心教导,让他渐渐走出学习障碍,给他带来全新的生活。

      这部充满童趣和想象力的《地球上的星星》是印度著名演员阿米尔·汗的导演处女作,而片中的那个有魅力的艺术老师就是由他本人扮演的。

      Ishaan Awasthi (Darsheel Safary饰)是一个八岁小男孩,他的世界充满了别人并不以未然的惊奇:色彩、鱼儿、小狗和风筝。这些对于成人世界并不那么重要,他们对家庭作业、分数和整洁更感兴趣。而Ishaan在学校,似乎什么也做不对。

      当他惹出的麻烦已经超出父母能掌控的范围后,他被送到了一家寄宿学校“接受教导”。在新学校,一切并没有什么不同。Ishaan必须应对额外的与家庭分离的创伤。

      一天,一位新的美术老师Ram Shankar Nikumbh(Aamir Khan饰)突如其来,用欢乐和乐观感染着每一个学生。他打破了“事情是如何完成”的所有规则,让学生自己去思考,去梦想,去想象。学生们都满怀热忱,除了Ishaan。Nikumbh很快也发现了Ishaan并不快乐,然后他开始了找寻原因。用时间、耐心和关怀,他最终帮助Ishaan找回了自己,还有快乐。


    ◎幕后制作 

      这是一部类似于《我的左脚》之类的励志电影,讲述了一个患有先天性阅读困难症的男孩,在老师的悉心照顾和培养下,逐渐摆脱自己的生理缺陷,迎接美好人生的故事。《地球之星》是印度著名男星阿米尔·汉自导自演的首部作品,推出后很快获得热烈响应,获得印度本土电影奖的最佳影片、最佳导演和最佳电影故事三项大奖,在出品大量电影的印度,官方选择此片出征奥斯卡,足见它的受欢迎程度。阿米尔·汉是一位才华全面的实力派演员,早在20年前,他主演的爱情悲剧电影《冷暖人间》就曾在中国内地上映,他扮演的痴情男拔刀徇情曾感动了许多观众,其2001年主演的《印度往事》则杀入了奥斯卡最佳外语片的决赛圈。


    ◎花絮

    影片获宝莱坞第53届Filmfare Awards电影奖最佳导演、最佳影片

    视频截图:

    【南印虎坛】2007 Taare Zameen Par 地球上的星星 BluRay 1080p DTS-HDMA 5.1 蓝光原.jpg

    文件信息:
    1. General

    2. Complete name               : G:\2007 Taare Zameen Par 地球上的星星 BluRay 1080p DTS-HDMA 5.1 蓝光原盘 外挂中文字幕.mkv
    3. Format                      : Matroska
    4. Format version              : Version 4
    5. File size                   : 32.8 GiB
    6. Duration                    : 2 h 42 min
    7. Overall bit rate mode       : Variable
    8. Overall bit rate            : 28.9 Mb/s
    9. Encoded by                  : snaink
    10. Encoded date                : UTC 2021-07-20 01:54:05
    11. Writing application         : mkvmerge v46.0.0 ('No Deeper Escape') 64-bit
    12. Writing library             : libebml v1.3.10 + libmatroska v1.5.2
    13. Cover                       : Yes
    14. Comment                     : DusIctv
    15. Attachments                 : cover.jpg

    16. Video
    17. ID                          : 1
    18. ID in the original source m : 4113 (0x1011)
    19. Format                      : AVC
    20. Format/Info                 : Advanced Video Codec
    21. Format profile              : High@L4.1
    22. Format settings             : CABAC / 4 Ref Frames
    23. Format settings, CABAC      : Yes
    24. Format settings, Reference  : 4 frames
    25. Format settings, GOP        : M=3, N=24
    26. Codec ID                    : V_MPEG4/ISO/AVC
    27. Duration                    : 2 h 42 min
    28. Bit rate mode               : Constant
    29. Bit rate                    : 27.0 Mb/s
    30. Width                       : 1 920 pixels
    31. Height                      : 1 080 pixels
    32. Display aspect ratio        : 16:9
    33. Frame rate mode             : Constant
    34. Frame rate                  : 23.976 (24000/1001) FPS
    35. Standard                    : NTSC
    36. Color space                 : YUV
    37. Chroma subsampling          : 4:2:0
    38. Bit depth                   : 8 bits
    39. Scan type                   : Progressive
    40. Bits/(Pixel*Frame)          : 0.543
    41. Stream size                 : 29.5 GiB (90%)
    42. Title                       : 南印虎坛 - 传递梵境之音(゜-゜)つロ 干杯~ http://www.jrntr.net/
    43. Default                     : Yes
    44. Forced                      : No
    45. Color range                 : Limited
    46. Color primaries             : BT.709
    47. Transfer characteristics    : BT.709
    48. Matrix coefficients         : BT.709
    49. Original source medium      : Blu-ray

    50. Audio #1
    51. ID                          : 2
    52. ID in the original source m : 4352 (0x1100)
    53. Format                      : DTS XLL
    54. Format/Info                 : Digital Theater Systems
    55. Commercial name             : DTS-HD Master Audio
    56. Codec ID                    : A_DTS
    57. Duration                    : 2 h 42 min
    58. Bit rate mode               : Variable
    59. Bit rate                    : 2 022 kb/s
    60. Channel(s)                  : 6 channels
    61. Channel layout              : C L R Ls Rs LFE
    62. Sampling rate               : 48.0 kHz
    63. Frame rate                  : 93.750 FPS (512 SPF)
    64. Bit depth                   : 16 bits
    65. Compression mode            : Lossless
    66. Stream size                 : 2.30 GiB (7%)
    67. Title                       : 南印虎坛 - 传递梵境之音(゜-゜)つロ 干杯~ http://www.jrntr.net/
    68. Language                    : Hindi
    69. Default                     : Yes
    70. Forced                      : No
    71. Original source medium      : Blu-ray

    72. Audio #2
    73. ID                          : 3
    74. ID in the original source m : 4353 (0x1101)
    75. Format                      : AC-3
    76. Format/Info                 : Audio Coding 3
    77. Commercial name             : Dolby Digital
    78. Codec ID                    : A_AC3
    79. Duration                    : 2 h 42 min
    80. Bit rate mode               : Constant
    81. Bit rate                    : 640 kb/s
    82. Channel(s)                  : 6 channels
    83. Channel layout              : L R C LFE Ls Rs
    84. Sampling rate               : 48.0 kHz
    85. Frame rate                  : 31.250 FPS (1536 SPF)
    86. Compression mode            : Lossy
    87. Stream size                 : 744 MiB (2%)
    88. Title                       : 南印虎坛 - 传递梵境之音(゜-゜)つロ 干杯~ http://www.jrntr.net/
    89. Language                    : Hindi
    90. Service kind                : Complete Main
    91. Default                     : No
    92. Forced                      : No
    93. Original source medium      : Blu-ray

    94. Audio #3
    95. ID                          : 4
    96. ID in the original source m : 4354 (0x1102)
    97. Format                      : AC-3
    98. Format/Info                 : Audio Coding 3
    99. Commercial name             : Dolby Digital
    100. Codec ID                    : A_AC3
    101. Duration                    : 2 h 42 min
    102. Bit rate mode               : Constant
    103. Bit rate                    : 256 kb/s
    104. Channel(s)                  : 2 channels
    105. Channel layout              : L R
    106. Sampling rate               : 48.0 kHz
    107. Frame rate                  : 31.250 FPS (1536 SPF)
    108. Compression mode            : Lossy
    109. Stream size                 : 298 MiB (1%)
    110. Title                       : 南印虎坛 - 传递梵境之音(゜-゜)つロ 干杯~ http://www.jrntr.net/
    111. Language                    : English
    112. Service kind                : Complete Main
    113. Default                     : No
    114. Forced                      : No
    115. Original source medium      : Blu-ray

    116. Text #1
    117. ID                          : 5
    118. ID in the original source m : 4608 (0x1200)
    119. Format                      : PGS
    120. Muxing mode                 : zlib
    121. Codec ID                    : S_HDMV/PGS
    122. Codec ID/Info               : Picture based subtitle format used on BDs/HD-DVDs
    123. Duration                    : 2 h 32 min
    124. Bit rate                    : 27.5 kb/s
    125. Count of elements           : 2662
    126. Stream size                 : 30.1 MiB (0%)
    127. Title                       : 南印虎坛 - 传递梵境之音(゜-゜)つロ 干杯~ http://www.jrntr.net/
    128. Language                    : English
    129. Default                     : Yes
    130. Forced                      : No
    131. Original source medium      : Blu-ray

    132. Text #2
    133. ID                          : 6
    134. ID in the original source m : 4609 (0x1201)
    135. Format                      : PGS
    136. Muxing mode                 : zlib
    137. Codec ID                    : S_HDMV/PGS
    138. Codec ID/Info               : Picture based subtitle format used on BDs/HD-DVDs
    139. Duration                    : 2 h 33 min
    140. Bit rate                    : 16.7 kb/s
    141. Count of elements           : 2865
    142. Stream size                 : 18.4 MiB (0%)
    143. Title                       : 南印虎坛 - 传递梵境之音(゜-゜)つロ 干杯~ http://www.jrntr.net/
    144. Language                    : Chinese
    145. Default                     : No
    146. Forced                      : No
    147. Original source medium      : Blu-ray

    148. Text #3
    149. ID                          : 7
    150. ID in the original source m : 4610 (0x1202)
    151. Format                      : PGS
    152. Muxing mode                 : zlib
    153. Codec ID                    : S_HDMV/PGS
    154. Codec ID/Info               : Picture based subtitle format used on BDs/HD-DVDs
    155. Duration                    : 2 h 33 min
    156. Bit rate                    : 18.1 kb/s
    157. Count of elements           : 2865
    158. Stream size                 : 19.9 MiB (0%)
    159. Title                       : 南印虎坛 - 传递梵境之音(゜-゜)つロ 干杯~ http://www.jrntr.net/
    160. Language                    : Chinese
    161. Default                     : No
    162. Forced                      : No
    163. Original source medium      : Blu-ray

    164. Text #4
    165. ID                          : 8
    166. ID in the original source m : 4611 (0x1203)
    167. Format                      : PGS
    168. Muxing mode                 : zlib
    169. Codec ID                    : S_HDMV/PGS
    170. Codec ID/Info               : Picture based subtitle format used on BDs/HD-DVDs
    171. Duration                    : 2 h 33 min
    172. Bit rate                    : 32.5 kb/s
    173. Count of elements           : 2867
    174. Stream size                 : 35.7 MiB (0%)
    175. Title                       : 南印虎坛 - 传递梵境之音(゜-゜)つロ 干杯~ http://www.jrntr.net/
    176. Language                    : Chinese
    177. Default                     : No
    178. Forced                      : No
    179. Original source medium      : Blu-ray

    180. Text #5
    181. ID                          : 9
    182. ID in the original source m : 4612 (0x1204)
    183. Format                      : PGS
    184. Muxing mode                 : zlib
    185. Codec ID                    : S_HDMV/PGS
    186. Codec ID/Info               : Picture based subtitle format used on BDs/HD-DVDs
    187. Duration                    : 2 h 33 min
    188. Bit rate                    : 32.1 kb/s
    189. Count of elements           : 2868
    190. Stream size                 : 35.3 MiB (0%)
    191. Title                       : 南印虎坛 - 传递梵境之音(゜-゜)つロ 干杯~ http://www.jrntr.net/
    192. Language                    : Chinese
    193. Default                     : No
    194. Forced                      : No
    195. Original source medium      : Blu-ray

    196. Menu
    197. 00:00:00.000                : en:Chapter 01
    198. 00:08:25.505                : en:Chapter 02
    199. 00:17:52.071                : en:Chapter 03
    200. 00:21:15.482                : en:Chapter 04
    201. 00:27:19.054                : en:Chapter 05
    202. 00:33:32.635                : en:Chapter 06
    203. 00:37:13.564                : en:Chapter 07
    204. 00:40:24.880                : en:Chapter 08
    205. 00:46:47.387                : en:Chapter 09
    206. 00:51:18.825                : en:Chapter 10
    207. 00:57:10.427                : en:Chapter 11
    208. 01:03:05.072                : en:Chapter 12
    209. 01:06:05.795                : en:Chapter 13
    210. 01:11:13.352                : en:Chapter 14
    211. 01:17:27.142                : en:Chapter 15
    212. 01:25:32.168                : en:Chapter 16
    213. 01:30:46.441                : en:Chapter 17
    214. 01:38:59.808                : en:Chapter 18
    215. 01:47:29.151                : en:Chapter 19
    216. 01:49:12.504                : en:Chapter 20
    217. 01:56:24.352                : en:Chapter 21
    218. 02:03:04.710                : en:Chapter 22
    219. 02:06:57.318                : en:Chapter 23
    220. 02:11:37.890                : en:Chapter 24
    221. 02:19:06.338                : en:Chapter 25
    222. 02:26:09.385                : en:Chapter 26
    223. 02:31:22.073                : en:Chapter 27
    224. 02:35:36.994                : en:Chapter 28

    复制代码


    下载地址:

    32.8G 蓝光原盘 外挂中字:链接:https://pan.baidu.com/s/1p_PdEFvxZ-uj3mcAH1-cgg
    提取码:

    购买主题 已有 2 人购买  提取码需支付 100虎牙才能查看 爱心会员免费




    上一篇:[地球上的星星] Taare Zameen Par 2007 BluRay 1080p DTS-HDMA 5.1 外挂中文字幕 [百度网盘]
    下一篇:[最富有的人] Srimanthudu 2015 WEB-DL 1080p AAC 2.0 外挂中文字幕 [百度网盘]
    回复

    使用道具 举报

  • TA的每日心情
    开心
    2021-7-28 01:47
  • 发表于 2021-7-22 23:23 | 显示全部楼层
    真的很好看!!~值得推薦!!~感謝大大分享先!~3Q!
    回复

    使用道具 举报

    您需要登录后才可以回帖 登录 | 立即注册

    本版积分规则

    手机版|小黑屋|南印虎坛 |网站地图

    GMT+8, 2021-7-29 17:33 , Processed in 0.158260 second(s), 30 queries .

    Powered by Jrntr.net X3.4

    © 2013-2021 南印虎坛

    快速回复 返回顶部 返回列表