请选择 进入手机版 | 继续访问电脑版

南印虎坛

南印虎坛 - 传递梵境之音(゜-゜)つロ~
// 看个虎片
查看: 147|回复: 1
收起左侧

[国王计划] Baadshah 2013 BluRay 1080p DTS-HDMA 5.1 蓝光原盘 外挂中文字幕 [百度网盘]

[复制链接] 设为封面
  • TA的每日心情
    郁闷
    2021-6-11 10:32
  • 发表于 2021-4-22 11:19 | 显示全部楼层 |阅读模式
    Baadshah Posters (9).jpg
    电影信息:

    片      名: Baadshah
    译      名: 国王计划
    语      言: 泰卢固语
    时      长: 2小时44分钟
    类      别: 剧情/爱情/动作
    上映时间:2013
    导      演:Sreenu Vaitla
    主      演:Jr. NTR, Kajal Aggarwal
    音      乐:S. Thaman
    文件格式:MKV
    分  辨 率:1920x1080
    音频格式:DTS 5.1
    文件大小:34.1 GiB
    字      幕:外挂中文字幕

    文件信息:

    1. General

    2. Complete name               : E:\【小老虎专区】\2013 国王计划\蓝光原盘\【南印虎坛】2013 Baadshah 国王计划 BluRay 1080p DTS-HDMA 5.1 蓝光原盘 外挂中文字幕.mkv
    3. Format                      : Matroska
    4. Format version              : Version 4
    5. File size                   : 34.2 GiB
    6. Duration                    : 2 h 44 min
    7. Overall bit rate mode       : Variable
    8. Overall bit rate            : 29.7 Mb/s
    9. Encoded date                : UTC 2021-04-22 02:51:11
    10. Writing application         : mkvmerge v51.0.0 ('I Wish') 64-bit
    11. Writing library             : libebml v1.4.0 + libmatroska v1.6.2
    12. Cover                       : Yes
    13. Attachments                 : Cover.jpg

    14. Video
    15. ID                          : 1
    16. Format                      : AVC
    17. Format/Info                 : Advanced Video Codec
    18. Format profile              : High@L4.1
    19. Format settings             : CABAC / 4 Ref Frames
    20. Format settings, CABAC      : Yes
    21. Format settings, Reference  : 4 frames
    22. Format settings, GOP        : M=3, N=24
    23. Codec ID                    : V_MPEG4/ISO/AVC
    24. Duration                    : 2 h 44 min
    25. Bit rate mode               : Variable
    26. Bit rate                    : 26.8 Mb/s
    27. Maximum bit rate            : 35.0 Mb/s
    28. Width                       : 1 920 pixels
    29. Height                      : 1 080 pixels
    30. Display aspect ratio        : 16:9
    31. Frame rate mode             : Constant
    32. Frame rate                  : 24.000 FPS
    33. Standard                    : NTSC
    34. Color space                 : YUV
    35. Chroma subsampling          : 4:2:0
    36. Bit depth                   : 8 bits
    37. Scan type                   : Progressive
    38. Bits/(Pixel*Frame)          : 0.538
    39. Stream size                 : 30.8 GiB (90%)
    40. Title                       : 南印虎坛 传递梵境之音(゜-゜)つロ 干杯~ http://www.jrntr.net/
    41. Default                     : Yes
    42. Forced                      : No
    43. Color range                 : Limited
    44. Color primaries             : BT.709
    45. Transfer characteristics    : BT.709
    46. Matrix coefficients         : BT.709

    47. Audio #1
    48. ID                          : 2
    49. Format                      : DTS XLL
    50. Format/Info                 : Digital Theater Systems
    51. Commercial name             : DTS-HD Master Audio
    52. Codec ID                    : A_DTS
    53. Duration                    : 2 h 44 min
    54. Bit rate mode               : Variable
    55. Bit rate                    : 2 473 kb/s
    56. Channel(s)                  : 6 channels
    57. Channel layout              : C L R Ls Rs LFE
    58. Sampling rate               : 48.0 kHz
    59. Frame rate                  : 93.750 FPS (512 SPF)
    60. Bit depth                   : 16 bits
    61. Compression mode            : Lossless
    62. Stream size                 : 2.84 GiB (8%)
    63. Title                       : 南印虎坛 传递梵境之音(゜-゜)つロ 干杯~ http://www.jrntr.net/
    64. Default                     : Yes
    65. Forced                      : No

    66. Audio #2
    67. ID                          : 3
    68. Format                      : AC-3
    69. Format/Info                 : Audio Coding 3
    70. Commercial name             : Dolby Digital
    71. Codec ID                    : A_AC3
    72. Duration                    : 2 h 44 min
    73. Bit rate mode               : Constant
    74. Bit rate                    : 448 kb/s
    75. Channel(s)                  : 6 channels
    76. Channel layout              : L R C LFE Ls Rs
    77. Sampling rate               : 48.0 kHz
    78. Frame rate                  : 31.250 FPS (1536 SPF)
    79. Compression mode            : Lossy
    80. Stream size                 : 528 MiB (2%)
    81. Title                       : 南印虎坛 传递梵境之音(゜-゜)つロ 干杯~ http://www.jrntr.net/
    82. Service kind                : Complete Main
    83. Default                     : No
    84. Forced                      : No

    85. Text
    86. ID                          : 4
    87. Format                      : PGS
    88. Muxing mode                 : zlib
    89. Codec ID                    : S_HDMV/PGS
    90. Codec ID/Info               : Picture based subtitle format used on BDs/HD-DVDs
    91. Duration                    : 2 h 40 min
    92. Bit rate                    : 38.4 kb/s
    93. Count of elements           : 4151
    94. Stream size                 : 44.1 MiB (0%)
    95. Title                       : 南印虎坛 传递梵境之音(゜-゜)つロ 干杯~ http://www.jrntr.net/
    96. Default                     : Yes
    97. Forced                      : No

    复制代码



    剧情简介:

    Rama Rao(NTR饰)的父亲为黑手党的老大Saadu Bhai卖命,由于父亲的地下党关系他当警察的工作被拒绝了。同时,他的弟弟Siddu在Saadu Bhai老大密谋的一次爆炸中意外身亡。Rama Rao决定复仇,在警官的建议下改名为Baadshah(意为国王)潜入黑手党与父亲重聚。很快从Saadu Bhai老大手中拿下了澳门。Saadu Bhai老大记恨他的勇气和侵犯性的行为,加入了敌人的战队共同对付他。Baadshah发现Saadu Bhai老大在印度准备了一系列的连环爆炸,而 Aadi平日作为一名警察却是爆炸的执行者,并准备娶Janaki(卡佳艾嘉饰)为妻。所以Baadshah为了拯救印度接近Janaki却无意爱上了她。他冒充婚礼策划师潜入 Janaki的家,打算毁掉她的婚事..

    视频截图:


    【南印虎坛】2013 Baadshah 国王计划 BluRay 1080p DTS-HDMA 5.1 蓝光原盘 外挂中文字.jpg 【南印虎坛】2013 Baadshah 国王计划 BluRay 1080p DTS-HDMA 5.1 蓝光原盘 外挂中文字.jpg 【南印虎坛】2013 Baadshah 国王计划 BluRay 1080p DTS-HDMA 5.1 蓝光原盘 外挂中文字.jpg 【南印虎坛】2013 Baadshah 国王计划 BluRay 1080p DTS-HDMA 5.1 蓝光原盘 外挂中文字.jpg 【南印虎坛】2013 Baadshah 国王计划 BluRay 1080p DTS-HDMA 5.1 蓝光原盘 外挂中文字.jpg 【南印虎坛】2013 Baadshah 国王计划 BluRay 1080p DTS-HDMA 5.1 蓝光原盘 外挂中文字.jpg 【南印虎坛】2013 Baadshah 国王计划 BluRay 1080p DTS-HDMA 5.1 蓝光原盘 外挂中文字.jpg 【南印虎坛】2013 Baadshah 国王计划 BluRay 1080p DTS-HDMA 5.1 蓝光原盘 外挂中文字.jpg

    下载地址:

    链接:https://pan.baidu.com/s/1nVn4Y25doK6Yr-cl3hqOcw
    提取码:


    购买主题 已有 7 人购买  提取码需支付 100虎牙才能查看 爱心会员免费




    上一篇:[怦然心动] Kuch Kuch Hota Hai 1998 BluRay 4K DTS-HDMA 5.1 外挂中文字幕 [百度网盘]
    下一篇:[宝莱坞机器人之恋] Enthiran 2010 BluRay 1080p DTS 5.1 蓝光原盘 外挂中文字幕 [百度网盘]
    回复

    使用道具 举报

  • TA的每日心情
    可爱
    2021-6-22 00:01
  • 发表于 2021-5-1 08:49 | 显示全部楼层
    都是熟悉的面孔,都是喜欢的男主女神
    回复

    使用道具 举报

    您需要登录后才可以回帖 登录 | 立即注册

    本版积分规则

    手机版|小黑屋|南印虎坛 |网站地图

    GMT+8, 2021-6-23 23:55 , Processed in 0.226000 second(s), 32 queries .

    Powered by Jrntr.net X3.4

    © 2013-2021 南印虎坛

    快速回复 返回顶部 返回列表