请选择 进入手机版 | 继续访问电脑版

南印虎坛

南印虎坛 - 传递梵境之音(゜-゜)つロ~
// 看个虎片
查看: 202|回复: 3
收起左侧

[怦然心动] Kuch Kuch Hota Hai 1998 BluRay 4K DTS-HDMA 5.1 外挂中文字幕 [百度网盘]

[复制链接] 设为封面
  • TA的每日心情
    郁闷
    2021-6-11 10:32
  • 发表于 2021-4-20 23:38 | 显示全部楼层 |阅读模式
    62877_front.jpg

    电影信息:

    片      名: Kuch Kuch Hota Hai
    译      名: 怦然心动
    语      言: 印地语
    时      长: 3小时05分
    类      别: 爱情
    上映时间:1998
    导      演: Karan Johar
    主      演: Shah Rukh Khan, Kajol, Rani Mukerji
    音      乐: Jatin-Lalit
    格      式: MKV
    分  辨 率: 3840x1632
    音      频: DTS-HDMA 5.1
    大      小: 29.2 GiB
    字      幕: 外挂中文字幕

    文件信息:

    1. General

    2. Complete name               : D:\【南印虎坛】1998 怦然心动 Kuch Kuch Hota Hai BluRay 1080p DTS-HDMA 5.1 外挂中文字幕.mkv
    3. Format                      : Matroska
    4. Format version              : Version 4
    5. File size                   : 29.2 GiB
    6. Duration                    : 3 h 5 min
    7. Overall bit rate mode       : Variable
    8. Overall bit rate            : 22.6 Mb/s
    9. Encoded date                : UTC 2021-04-06 16:07:29
    10. Writing application         : mkvmerge v51.0.0 ('I Wish') 64-bit
    11. Writing library             : libebml v1.4.0 + libmatroska v1.6.2
    12. Cover                       : Yes
    13. Attachments                 : Cover.jpg

    14. Video
    15. ID                          : 1
    16. Format                      : HEVC
    17. Format/Info                 : High Efficiency Video Coding
    18. Format profile              : Main 10@L5.1@High
    19. Codec ID                    : V_MPEGH/ISO/HEVC
    20. Duration                    : 3 h 5 min
    21. Bit rate                    : 20.3 Mb/s
    22. Width                       : 3 840 pixels
    23. Height                      : 1 632 pixels
    24. Display aspect ratio        : 2.35:1
    25. Frame rate mode             : Constant
    26. Frame rate                  : 24.000 FPS
    27. Color space                 : YUV
    28. Chroma subsampling          : 4:2:0
    29. Bit depth                   : 10 bits
    30. Bits/(Pixel*Frame)          : 0.135
    31. Stream size                 : 26.2 GiB (90%)
    32. Title                       : 南印虎坛 - 传递梵境之音(゜-゜)つロ 干杯~ http://www.jrntr.net/
    33. Language                    : English
    34. Default                     : Yes
    35. Forced                      : No
    36. Color range                 : Limited
    37. Color primaries             : BT.709
    38. Transfer characteristics    : BT.709
    39. Matrix coefficients         : BT.709

    40. Audio
    41. ID                          : 2
    42. Format                      : DTS XLL
    43. Format/Info                 : Digital Theater Systems
    44. Commercial name             : DTS-HD Master Audio
    45. Codec ID                    : A_DTS
    46. Duration                    : 3 h 5 min
    47. Bit rate mode               : Variable
    48. Bit rate                    : 2 365 kb/s
    49. Channel(s)                  : 6 channels
    50. Channel layout              : C L R Ls Rs LFE
    51. Sampling rate               : 48.0 kHz
    52. Frame rate                  : 93.750 FPS (512 SPF)
    53. Bit depth                   : 16 bits
    54. Compression mode            : Lossless
    55. Stream size                 : 3.06 GiB (10%)
    56. Title                       : 南印虎坛 - 传递梵境之音(゜-゜)つロ 干杯~ http://www.jrntr.net/
    57. Language                    : Hindi
    58. Default                     : Yes
    59. Forced                      : No

    60. Text
    61. ID                          : 3
    62. Format                      : PGS
    63. Muxing mode                 : zlib
    64. Codec ID                    : S_HDMV/PGS
    65. Codec ID/Info               : Picture based subtitle format used on BDs/HD-DVDs
    66. Duration                    : 2 h 56 min
    67. Bit rate                    : 28.5 kb/s
    68. Count of elements           : 3107
    69. Stream size                 : 35.9 MiB (0%)
    70. Title                       : 南印虎坛 - 传递梵境之音(゜-゜)つロ 干杯~ http://www.jrntr.net/
    71. Language                    : English
    72. Default                     : Yes
    73. Forced                      : No

    74. Menu
    75. 00:00:00.000                : :Chapter 01
    76. 00:03:16.375                : :Chapter 02
    77. 00:08:12.708                : :Chapter 03
    78. 00:11:06.750                : :Chapter 04
    79. 00:19:07.041                : :Chapter 05
    80. 00:20:22.333                : :Chapter 06
    81. 00:23:43.875                : :Chapter 07
    82. 00:36:56.166                : :Chapter 08
    83. 00:43:47.041                : :Chapter 09
    84. 00:50:12.333                : :Chapter 10
    85. 00:53:24.208                : :Chapter 11
    86. 01:03:23.916                : :Chapter 12
    87. 01:09:24.625                : :Chapter 13
    88. 01:18:49.458                : :Chapter 14
    89. 01:21:06.125                : :Chapter 15
    90. 01:24:33.208                : :Chapter 16
    91. 01:29:54.541                : :Chapter 17
    92. 01:34:51.833                : :Chapter 18
    93. 01:42:01.375                : :Chapter 19
    94. 01:45:09.750                : :Chapter 20
    95. 01:47:23.666                : :Chapter 21
    96. 01:52:50.916                : :Chapter 22
    97. 01:55:30.958                : :Chapter 23
    98. 02:01:26.666                : :Chapter 24
    99. 02:05:13.166                : :Chapter 25
    100. 02:07:25.041                : :Chapter 26
    101. 02:08:28.750                : :Chapter 27
    102. 02:12:03.500                : :Chapter 28
    103. 02:17:54.291                : :Chapter 29
    104. 02:35:18.708                : :Chapter 30
    105. 02:45:38.250                : :Chapter 31
    106. 02:48:54.166                : :Chapter 32
    107. 02:51:06.416                : :Chapter 33
    108. 02:54:28.875                : :Chapter 34
    109. 02:55:47.708                : :Chapter 35
    110. 03:01:17.958                : :Chapter 36
    111. 03:02:41.083                : :Chapter 37

    复制代码


    视频截图:

    【南印虎坛】1998 怦然心动 Kuch Kuch Hota Hai BluRay 4K DTS-HDMA 5.1 外挂中文字幕.jpg 【南印虎坛】1998 怦然心动 Kuch Kuch Hota Hai BluRay 4K DTS-HDMA 5.1 外挂中文字幕.jpg 【南印虎坛】1998 怦然心动 Kuch Kuch Hota Hai BluRay 4K DTS-HDMA 5.1 外挂中文字幕.jpg 【南印虎坛】1998 怦然心动 Kuch Kuch Hota Hai BluRay 4K DTS-HDMA 5.1 外挂中文字幕.jpg 【南印虎坛】1998 怦然心动 Kuch Kuch Hota Hai BluRay 4K DTS-HDMA 5.1 外挂中文字幕.jpg 【南印虎坛】1998 怦然心动 Kuch Kuch Hota Hai BluRay 4K DTS-HDMA 5.1 外挂中文字幕.jpg 【南印虎坛】1998 怦然心动 Kuch Kuch Hota Hai BluRay 4K DTS-HDMA 5.1 外挂中文字幕.jpg 【南印虎坛】1998 怦然心动 Kuch Kuch Hota Hai BluRay 4K DTS-HDMA 5.1 外挂中文字幕.jpg

    下载地址:

    链接:https://pan.baidu.com/s/1niXcJ7-g2yJEngGL4eBj0Q
    提取码:


    购买主题 已有 7 人购买  提取码需支付 100虎牙才能查看 爱心会员免费




    上一篇:[复仇计谋] Ramayya Vastavayya 2013 BluRay 1080p DTS-HDMA 5.1 蓝光原盘 外挂中文字幕 [百度网盘]
    下一篇:[国王计划] Baadshah 2013 BluRay 1080p DTS-HDMA 5.1 蓝光原盘 外挂中文字幕 [百度网盘]
    回复

    使用道具 举报

  • TA的每日心情
    可爱
    2021-6-22 00:01
  • 发表于 2021-5-1 08:51 | 显示全部楼层
    女主笑得很美,老沙笑得一如既往的迷人
    回复

    使用道具 举报

  • TA的每日心情
    开心
    2021-6-23 21:51
  • 发表于 2021-5-22 02:50 来自手机 | 显示全部楼层
    这个4K必须收藏      
    回复

    使用道具 举报

  • TA的每日心情
    开心
    2021-6-23 00:28
  • 发表于 2021-6-13 12:24 | 显示全部楼层
    帶感謝大大分享超高畫質的啦~一定要的啊!!~感謝先!!
    回复

    使用道具 举报

    您需要登录后才可以回帖 登录 | 立即注册

    本版积分规则

    手机版|小黑屋|南印虎坛 |网站地图

    GMT+8, 2021-6-23 23:07 , Processed in 0.226309 second(s), 32 queries .

    Powered by Jrntr.net X3.4

    © 2013-2021 南印虎坛

    快速回复 返回顶部 返回列表