请选择 进入手机版 | 继续访问电脑版

南印虎坛

南印虎坛 - 传递梵境之音(゜-゜)つロ~
// 看个虎片
查看: 183|回复: 2
收起左侧

[狂风战神] Racha 2012 BluRay 1080P DTS-HDMA 5.1 蓝光原盘 外挂中文字幕 [百度网盘]

[复制链接] 设为封面
  • TA的每日心情
    郁闷
    2021-6-11 10:32
  • 发表于 2021-3-15 13:48 | 显示全部楼层 |阅读模式
    5.jpg


    电影信息:

    原      名:Racha
    译      名:狂风战神
    语      言:泰卢固语
    时      长:2:23:48
    类      别:动作
    上      映:2012-04-05
    导      演:Sampath Nandi
    主      演:Ram Charan, Tamannaah Bhatia, Ajmal Ameer
    音      乐:Mani Sharma
    格      式:BD-MKV
    尺      寸:1920*1080
    音      频:DTS.HDMA 5.1
    大      小:34.7G
    字      幕:外挂中文字幕
    来      源:蓝光原盘重封装

    南印虎坛 独家首发

    文件信息:

    1. General
    2. Complete name               : E:\虎坛压制\【南印虎坛】2012 狂风战神 Racha BluRay 1080P DTS-HDMA 5.1 蓝光原盘 外挂中文字幕.mkv
    3. Format                      : Matroska
    4. Format version              : Version 4
    5. File size                   : 34.8 GiB
    6. Duration                    : 2 h 23 min
    7. Overall bit rate mode       : Variable
    8. Overall bit rate            : 34.6 Mb/s
    9. Encoded date                : UTC 2021-03-15 03:17:52
    10. Writing application         : mkvmerge v51.0.0 ('I Wish') 64-bit
    11. Writing library             : libebml v1.4.0 + libmatroska v1.6.2
    12. Cover                       : Yes
    13. Attachments                 : Cover.jpg

    14. Video
    15. ID                          : 1
    16. Format                      : AVC
    17. Format/Info                 : Advanced Video Codec
    18. Format profile              : High@L4.1
    19. Format settings             : CABAC / 4 Ref Frames
    20. Format settings, CABAC      : Yes
    21. Format settings, Reference  : 4 frames
    22. Format settings, GOP        : M=3, N=24
    23. Codec ID                    : V_MPEG4/ISO/AVC
    24. Duration                    : 2 h 23 min
    25. Bit rate mode               : Variable
    26. Bit rate                    : 31.6 Mb/s
    27. Maximum bit rate            : 38.0 Mb/s
    28. Width                       : 1 920 pixels
    29. Height                      : 1 080 pixels
    30. Display aspect ratio        : 16:9
    31. Frame rate mode             : Constant
    32. Frame rate                  : 24.000 FPS
    33. Standard                    : NTSC
    34. Color space                 : YUV
    35. Chroma subsampling          : 4:2:0
    36. Bit depth                   : 8 bits
    37. Scan type                   : Progressive
    38. Bits/(Pixel*Frame)          : 0.635
    39. Stream size                 : 31.8 GiB (91%)
    40. Title                       : 南印虎坛 传递梵境之音(゜-゜)つロ 干杯~ http://www.jrntr.net/
    41. Default                     : Yes
    42. Forced                      : No
    43. Color range                 : Limited
    44. Color primaries             : BT.709
    45. Transfer characteristics    : BT.709
    46. Matrix coefficients         : BT.709

    47. Audio #1
    48. ID                          : 2
    49. Format                      : AC-3
    50. Format/Info                 : Audio Coding 3
    51. Commercial name             : Dolby Digital
    52. Codec ID                    : A_AC3
    53. Duration                    : 2 h 23 min
    54. Bit rate mode               : Constant
    55. Bit rate                    : 448 kb/s
    56. Channel(s)                  : 6 channels
    57. Channel layout              : L R C LFE Ls Rs
    58. Sampling rate               : 48.0 kHz
    59. Frame rate                  : 31.250 FPS (1536 SPF)
    60. Compression mode            : Lossy
    61. Stream size                 : 461 MiB (1%)
    62. Title                       : 南印虎坛 传递梵境之音(゜-゜)つロ 干杯~ http://www.jrntr.net/
    63. Language                    : Telugu
    64. Service kind                : Complete Main
    65. Default                     : Yes
    66. Forced                      : No

    67. Audio #2
    68. ID                          : 3
    69. Format                      : DTS XLL
    70. Format/Info                 : Digital Theater Systems
    71. Commercial name             : DTS-HD Master Audio
    72. Codec ID                    : A_DTS
    73. Duration                    : 2 h 23 min
    74. Bit rate mode               : Variable
    75. Bit rate                    : 2 563 kb/s
    76. Channel(s)                  : 6 channels
    77. Channel layout              : C L R Ls Rs LFE
    78. Sampling rate               : 48.0 kHz
    79. Frame rate                  : 93.750 FPS (512 SPF)
    80. Bit depth                   : 16 bits
    81. Compression mode            : Lossless
    82. Stream size                 : 2.57 GiB (7%)
    83. Title                       : 南印虎坛 传递梵境之音(゜-゜)つロ 干杯~ http://www.jrntr.net/
    84. Language                    : Telugu
    85. Default                     : No
    86. Forced                      : No

    87. Text #1
    88. ID                          : 4
    89. Format                      : UTF-8
    90. Codec ID                    : S_TEXT/UTF8
    91. Codec ID/Info               : UTF-8 Plain Text
    92. Duration                    : 2 h 22 min
    93. Bit rate                    : 51 b/s
    94. Count of elements           : 1440
    95. Stream size                 : 53.6 KiB (0%)
    96. Title                       : 南印虎坛 传递梵境之音(゜-゜)つロ 干杯~ http://www.jrntr.net/
    97. Language                    : English
    98. Default                     : No
    99. Forced                      : No

    100. Text #2
    101. ID                          : 5
    102. Format                      : PGS
    103. Muxing mode                 : zlib
    104. Codec ID                    : S_HDMV/PGS
    105. Codec ID/Info               : Picture based subtitle format used on BDs/HD-DVDs
    106. Duration                    : 2 h 20 min
    107. Bit rate                    : 27.1 kb/s
    108. Count of elements           : 2875
    109. Stream size                 : 27.1 MiB (0%)
    110. Title                       : 南印虎坛 传递梵境之音(゜-゜)つロ 干杯~ http://www.jrntr.net/
    111. Language                    : English
    112. Default                     : Yes
    113. Forced                      : No

    复制代码



    电影介绍:

           欲望无止境。为了财富,恶人不惜大开杀戮,但留下一男一女两个孩子,男孩和女孩是心心相悦的。男孩是幸免于难的,而女孩则是会计的"诡计"。当男孩和女孩长大后,故事会朝什么方向发展呢?



    视频截图:



    【南印虎坛】2012 狂风战神 Racha BluRay 1080P DTS-HD 5.1 蓝光原盘 外挂中文字幕.mk.jpg 【南印虎坛】2012 狂风战神 Racha BluRay 1080P DTS-HD 5.1 蓝光原盘 外挂中文字幕.mk.jpg 【南印虎坛】2012 狂风战神 Racha BluRay 1080P DTS-HD 5.1 蓝光原盘 外挂中文字幕.mk.jpg 【南印虎坛】2012 狂风战神 Racha BluRay 1080P DTS-HD 5.1 蓝光原盘 外挂中文字幕.mk.jpg 【南印虎坛】2012 狂风战神 Racha BluRay 1080P DTS-HD 5.1 蓝光原盘 外挂中文字幕.mk.jpg 【南印虎坛】2012 狂风战神 Racha BluRay 1080P DTS-HD 5.1 蓝光原盘 外挂中文字幕.mk.jpg 【南印虎坛】2012 狂风战神 Racha BluRay 1080P DTS-HD 5.1 蓝光原盘 外挂中文字幕.mk.jpg 【南印虎坛】2012 狂风战神 Racha BluRay 1080P DTS-HD 5.1 蓝光原盘 外挂中文字幕.mk.jpg

    下载地址:爱心会员免虎牙下载

    购买主题 已有 9 人购买  提取码需支付 100虎牙才能查看 爱心会员免费




    上一篇:[橙色/爱,多一点点] Orange 2010 BluRay 1080p DTS-HDMA 5.1 蓝光原盘 外挂中文字幕 [百度网盘]
    下一篇:[未知死亡] Ghajini 2005 BluRay DTS-HDMA 5.1 外挂中文字幕 [百度网盘]
    回复

    使用道具 举报

  • TA的每日心情
    可爱
    2021-6-22 00:01
  • 发表于 2021-3-19 13:24 | 显示全部楼层
    年轻十岁确实都水水嫩嫩的,脸上有光
    回复

    使用道具 举报

  • TA的每日心情
    开心
    2021-6-23 00:28
  • 发表于 2021-6-8 00:18 | 显示全部楼层
    超高清晰的一定要來的阿~
    謝謝大大不斷有超高清晰的畫質更新!!~
    喜歡的就趕快加入【南印虎坛】的愛心會員囉~
    推推推~
    回复

    使用道具 举报

    您需要登录后才可以回帖 登录 | 立即注册

    本版积分规则

    手机版|小黑屋|南印虎坛 |网站地图

    GMT+8, 2021-6-23 23:23 , Processed in 0.492711 second(s), 32 queries .

    Powered by Jrntr.net X3.4

    © 2013-2021 南印虎坛

    快速回复 返回顶部 返回列表