请选择 进入手机版 | 继续访问电脑版

南印虎坛

 找回密码
 立即注册
查看: 40|回复: 1

[穆那大哥做医生] Munna Bhai M.B.B.S. 2003 WEB-DL 1080p AAC 2.0 外挂中文字幕 [百度网盘]

[复制链接] 设为封面
  • TA的每日心情
    萌哒
    2021-4-17 01:51
  • 发表于 2021-4-7 23:12 | 显示全部楼层 |阅读模式
    Cover.jpg



    电影信息:

    原      名:Munna Bhai M.B.B.S.
    译      名:穆那大哥做医生
    语      言:印地语
    时      长:2:36:07
    类      别:剧情
    上      映:2003
    导      演:Rajkumar Hirani
    主      演:Sanjay Dutt, Arshad Warsi, Gracy Singh |
    格      式:HD-MKV
    尺      寸:1920*816
    音      频:AAC 2.0
    大      小:13.2G
    字      幕:外挂中文字幕


    电影介绍:

          Munna大哥是黑帮老大, 但却瞒着家里的双亲说自己的医生, 因为父亲一直希望他能做个医生. 穿帮以后, Munna立志要做个真正的医生, 于是用小手段通过入学考试顺利进入医学院. 冤家路窄, 医学院的院长竟然是父亲好友, 也是拆穿自己面目令父亲受辱的Asthana医生. 在医院里, Munna大哥打抱不平, 也逐渐用自己的"一套"打动了每个人的心, 甚至创造了奇迹...

    文件信息:

    1. General
    2. Complete name               : E:\【南印虎坛】2003 穆那大哥做医生 Munna Bhai M.B.B.S. WEB-DL 1080p AAC 2.0 外挂中文字幕.mkv
    3. Format                      : Matroska
    4. Format version              : Version 4
    5. File size                   : 13.3 GiB
    6. Duration                    : 2 h 36 min
    7. Overall bit rate            : 12.2 Mb/s
    8. Encoded date                : UTC 2021-04-07 14:54:18
    9. Writing application         : mkvmerge v51.0.0 ('I Wish') 64-bit
    10. Writing library             : libebml v1.4.0 + libmatroska v1.6.2
    11. Cover                       : Yes
    12. Attachments                 : Cover.jpg

    13. Video
    14. ID                          : 1
    15. Format                      : AVC
    16. Format/Info                 : Advanced Video Codec
    17. Format profile              : High@L4
    18. Format settings             : CABAC / 4 Ref Frames
    19. Format settings, CABAC      : Yes
    20. Format settings, Reference  : 4 frames
    21. Codec ID                    : V_MPEG4/ISO/AVC
    22. Duration                    : 2 h 36 min
    23. Bit rate                    : 12.0 Mb/s
    24. Width                       : 1 920 pixels
    25. Height                      : 816 pixels
    26. Display aspect ratio        : 2.35:1
    27. Frame rate mode             : Constant
    28. Frame rate                  : 24.000 FPS
    29. Color space                 : YUV
    30. Chroma subsampling          : 4:2:0
    31. Bit depth                   : 8 bits
    32. Scan type                   : Progressive
    33. Bits/(Pixel*Frame)          : 0.319
    34. Stream size                 : 13.1 GiB (98%)
    35. Title                       : 南印虎坛 - 传递梵境之音(゜-゜)つロ 干杯~ http://www.jrntr.net/
    36. Writing library             : x264 core 138
    37. Default                     : Yes
    38. Forced                      : No

    39. Audio
    40. ID                          : 2
    41. Format                      : AAC LC
    42. Format/Info                 : Advanced Audio Codec Low Complexity
    43. Codec ID                    : A_AAC-2
    44. Duration                    : 2 h 36 min
    45. Bit rate                    : 192 kb/s
    46. Channel(s)                  : 2 channels
    47. Channel layout              : L R
    48. Sampling rate               : 48.0 kHz
    49. Frame rate                  : 46.875 FPS (1024 SPF)
    50. Compression mode            : Lossy
    51. Delay relative to video     : -42 ms
    52. Stream size                 : 214 MiB (2%)
    53. Title                       : 南印虎坛 - 传递梵境之音(゜-゜)つロ 干杯~ http://www.jrntr.net/
    54. Language                    : Hindi
    55. Default                     : No
    56. Forced                      : No

    复制代码

    视频截图:

    【南印虎坛】2003 穆那大哥做医生 Munna Bhai M.B.B.S. WEB-DL 1080p AAC 2.0 外挂中.jpg 【南印虎坛】2003 穆那大哥做医生 Munna Bhai M.B.B.S. WEB-DL 1080p AAC 2.0 外挂中.jpg 【南印虎坛】2003 穆那大哥做医生 Munna Bhai M.B.B.S. WEB-DL 1080p AAC 2.0 外挂中.jpg 【南印虎坛】2003 穆那大哥做医生 Munna Bhai M.B.B.S. WEB-DL 1080p AAC 2.0 外挂中.jpg 【南印虎坛】2003 穆那大哥做医生 Munna Bhai M.B.B.S. WEB-DL 1080p AAC 2.0 外挂中.jpg 【南印虎坛】2003 穆那大哥做医生 Munna Bhai M.B.B.S. WEB-DL 1080p AAC 2.0 外挂中.jpg 【南印虎坛】2003 穆那大哥做医生 Munna Bhai M.B.B.S. WEB-DL 1080p AAC 2.0 外挂中.jpg 【南印虎坛】2003 穆那大哥做医生 Munna Bhai M.B.B.S. WEB-DL 1080p AAC 2.0 外挂中.jpg

    下载地址:链接:https://pan.baidu.com/s/15X0EkCvRGVTmMLLQbTPKow 提取码:

    购买主题 已有 3 人购买  提取码需支付 30虎牙才能查看 爱心会员免费




    上一篇:[骗行无阻] Thaanaa Serndha Koottam 2018 WEB-DL 1080p AC3 5.1 外挂中文字幕 [百度网盘]
    下一篇:[三个傻瓜闯钱关2] Phir Hera Pheri 2006 HDRip 720p AC3 2.0 外挂中文字幕 [百度网盘]
    回复

    使用道具 举报

  • TA的每日心情
    萌哒
    2021-4-22 07:57
  • 发表于 2021-4-8 09:51 | 显示全部楼层
    倒数第二张好像特曼娜呀
    回复

    使用道具 举报

    您需要登录后才可以回帖 登录 | 立即注册

    本版积分规则

    手机版|小黑屋|南印虎坛 |网站地图

    GMT+8, 2021-4-22 19:55 , Processed in 0.241223 second(s), 31 queries .

    Powered by Discuz! X3.4

    Copyright © 2001-2020, Tencent Cloud.

    快速回复 返回顶部 返回列表